The Hateful Eight 2015 4K UHD 2160p torrent

0 / 4126
The Hateful Eight 2015 4K UHD 2160p torrent

The Hateful Eight 2015 4K UHD 2160p torrent

The Hateful Eight 2015 4K UHD 2160p torrent


** Hateful Eight **
** 2015**
** 2160p UHD 4K / DCPrip / x264
English DTS-HDMA 5.1 **
** English + SHD + Russian Subtitle(s) **


[ Info ]

Source : DCP Rip @ UHDClub
General
Format : Matroska
File size : 38.1 GiB
Duration : 2 h 40 min
Overall bit rate : 33.9 Mb/s

Video


Format : AVC
Format/Info : Advanced Video Codec
Format profile : [email protected]
Format settings, CABAC : Yes
Format settings, ReFrames : 8 frames
Codec ID : V_MPEG4/ISO/AVC
Duration : 2 h 40 min
Bit rate : 30.3 Mb/s
Width : 3 840 pixels
Height : 1 396 pixels
Display aspect ratio : 2.751
Frame rate mode : Constant
Frame rate : 25.000 FPS
Color space : YUV
Chroma subsampling : 4:2:0
Bit depth : 8 bits
Scan type : Progressive
Bits/(Pixel*Frame) : 0.226
Stream size : 34.1 GiB (90%)
Title : The Hateful Eight (2015)
Language : English
Default : Yes
Forced : No

Audio


Format : DTS
Format/Info : Digital Theater Systems
Format profile : MA / Core
Mode : 16
Format settings, Endianness : Big
Codec ID : A_DTS
Duration : 2 h 40 min
Bit rate mode : Variable / Constant
Bit rate : 3 550 kb/s / 1 509 kb/s
Channel(s) : 6 channels
Channel positions : Front: L C R, Side: L R, LFE
Sampling rate : 48.0 kHz
Frame rate : 93.750 FPS (512 spf)
Bit depth : 24 bits
Compression mode : Lossless / Lossy
Stream size : 3.99 GiB (10%)
Title : DTS-HD MA 5.1 – Blu-ray
Language : English
Default : No
Forced : No

Chapters : YES

[ Ultra High Speed Seeding !!! ]


▶ The Hateful Eight Official Trailer #1 (2016) Samuel L. Jackson, Quentin Tarantino Movie HD


♦ The Hateful Eight 2015 4K UHD 2160p torrent 

 The Hateful Eight 2015 4K UHD 2160p Torrent

  • – The Hateful Eight 2015 4K UHD 2160p REMUX DCPRip DTS-HD 5.1-DDR Torrent

( Size : 38.06 GB )

Download Torrent

The Hateful Eight 2015 4K UHD 2160p torrent


◊ Help: How To Download Through Torrent


 The Hateful Eight 2015 1080p BluRay Torrent



¶ Note: Open Website On Browser internet explorer or Opera to Enter categories Torrents, as: halkaliescort.info/category/movies ¶ Contact: [email protected]

Related Posts

Leave a Reply

Your email address will not be published. Required fields are marked *

Time limit is exhausted. Please reload CAPTCHA.